Сделать домашнейВ избранноеRSS Регистрация
  • Войти

Обсуждаемые публикации

Конкурс "Придумай подпись для...
Придорожный полуфабрикат и... его ...

Serrrge   Мичман


Придорожный полуфабрикат и... его производное crazy
USDownloader...
Цитата: kellaUSDownloader себя исче ...

Serrrge   Мичман


Цитата: kella
USDownloader себя исчерпал!

- Нифига!
PS: Есть и свеЖовее версия ;)
Да сделайте уже торент ссылки, USD ...

kella   Матрос


Да сделайте уже торент ссылки, USDownloader себя исчерпал!
SD Maid Pro - System Cleaning Tool...
Цитата: alexpikaСильный инструктор. ...

tellurian   Матрос


Цитата: alexpika
Сильный инструктор. Ему бы прежде протрезвиться.

На ютьюбе по поиску ещё до фига можно найти материала по этой теме. :)
Сильный инструктор. Ему бы прежде п ...

alexpika   Офицер


Сильный инструктор. Ему бы прежде протрезвиться.
Цитата: alexpikaКаким образом получ ...

tellurian   Матрос


Цитата: alexpika
Каким образом получить эти самые права root пользователя?


Каким образом получить эти самые п ...

alexpika   Офицер


Каким образом получить эти самые права root пользователя? Спасибо.
Анатолий Вассерман - Цитаты от...
А, нормальных ссылок нет всё через. ...

kella   Матрос


А, нормальных ссылок нет всё через....
Black Oak Arkansas - Underdog...
Помню-помню, крутил их раньше на по ...

jack123   Матрос


Помню-помню, крутил их раньше на полную катушку!
Не ожидал нового альбома! Брависсимо !
Помню лет 20 назад еду с женой на авто и Black Oak орет что есть мочи!
Жена - убери гундосых, сил уже нет слушать!
Я - нет дорогая, привыкай, это мой любимый голос! Ну и чтож что гундосый!
Зато какой гундосый !!!
music dash
F.R.David - The Wheel (2007)...
Спасибо! Свежий новый звук в Words.

aspov   Матрос


Спасибо! Свежий новый звук в Words.
Sandra - The Very Best Of (2CD +...
Тоже помню....до сих пор пробирает. ...

jack123   Матрос


Тоже помню....до сих пор пробирает...
Gentle Giant – The Power and The...
Спамер сброшен за борт

romanzakirovgp   Юнга


Спамер сброшен за борт
The Headcutters - Shake That Thing...
Lots of thanks for this fine share ...

NoKnoxx   Старшина


Lots of thanks for this fine share ZuFal! drinks
Курительный салон "Абафсём"...
Они просто великолепны!

BozMozzisКапитан


Они просто великолепны!

Всякие прикольные фотки, картинки,...
Цитата: BozMozzisСледи за тапками и ...

rwa12   Офицер


Цитата: BozMozzis
Следи за тапками и колбасой!

Он не такой. Сама невинность. biggrin

Snowy White & The White Flames – The Situation (2019)

Автор: burn26-04-2019, 05:19 Просмотров: 612 Комментариев: 14
Snowy White & The White Flames – The Situation (2019)
Известный британский гитарист Snowy White представляет свой новый альбом, содержащий 12 новых треков. В очередной раз Snowy White позвал своих друзей из The White Flames к совместной записи.С конца 1960-х годов Сноуи с его характерная игра на гитаре оставили свой след и вкус в различных жанрах, особенно блюз-рок. Будь то участник Thin Lizzy (на альбомах ’Chinatown’ и ’Renegade’), или работая с Питером Грином (Fleetwood Mac), и уж тем более как незаменимый гастрольный музыкант для Pink Floyd, а затем и Роджера Уотерса, да и просто, как высокоуважаемый сольный исполнитель: Сноуи всегда оставался верен своей любви к отличной, гитарной музыке.

скачать dle 11.1смотреть фильмы бесплатно

Направление, стиль: Blues Rock

Исполнитель: Snowy White ft. The White Flames

Альбом: The Situation

Год издания: 2019

Страна исполнителя: UK

Издатель (лейбл): Soulfood ‎– 0884860263429

Продолжительность: 01:00:19

Формат: FLAC (*.flac)

Параметры: tracks


Треклист:
01. The Situation (5:06)
02. This Feeling (3:18)
03. L.A. Skip (6:50)
04. Can’t Seem To Do Much About It (5:11)
05. Crazy Situation Blues (3:57)
06. Blues In My Reflection (4:30)
07. Why Do I Still Have The Blues? (8:34)
08. You Can’t Take It With You (2:22)
09. Migration (6:43)
10. The Lying Game (4:25)
11. Hard Blues (4:32)
12. I Can’t Imagine (4:45)


Размер файлов: 372mb


Скачать:

Внимание! У Вас нет прав для просмотра скрытого текста.

Категория: Музыка / Rock
← назад к списку Поделиться:

Офицер

Публикаций: 281

Награды:

Сейчас нет на сайте rwa12 ответить
  • 1
С возвращением! drinks
26 апреля 2019 07:48 #1

Мичман

Публикаций: 1 834

Награды:

Сейчас нет на сайте burn ответить
  • 2
Спасибо Игорь! Самое главное, что не всем возвращение поперек горла. biggrin
26 апреля 2019 08:16 #2

Старшина

Публикаций: 0

Сейчас нет на сайте pitkon ответить
  • 1
Цитата: rwa12
С возвращением! drinks

И Александра и Снежка!
Александр, СПАСИБО! good
26 апреля 2019 08:16 #3

Мичман

Публикаций: 1 834

Награды:

Сейчас нет на сайте burn ответить
  • 1
Цитата: pitkon
Александр, СПАСИБО!

Спасибо Петр.
26 апреля 2019 09:06 #4

Матрос

Публикаций: 0

Сейчас нет на сайте sasos ответить
  • 1
Очень хороший альбом!
26 апреля 2019 20:12 #5

Старшина

Публикаций: 83

Сейчас нет на сайте salernitana ответить
  • 0
Спасибо!)
26 апреля 2019 20:18 #6

Старшина

Публикаций: 0

Сейчас нет на сайте pitkon ответить
  • 1
Цитата: sasos
Очень хороший альбом!

И даже очень-очень!
Александр, СПАСИБО ещё раз! hi
26 апреля 2019 20:21 #7

Мичман

Публикаций: 1 834

Награды:

Сейчас нет на сайте burn ответить
  • 0
Всем СПАСИБО за отзывы. drinks
27 апреля 2019 03:57 #8

Матрос

Публикаций: 0

Сейчас нет на сайте akme ответить
  • 1
Спасибо!

Набросал на коленке The Situation.cue:

REM GENRE Blues
REM DATE 2019
PERFORMER "Snowy White & The White Flames"
TITLE "The Situation"
FILE "01. The Situation.flac" WAVE
TRACK 01 AUDIO
TITLE "The Situation"
INDEX 01 00:00:00
FILE "02. This Feeling.flac" WAVE
TRACK 02 AUDIO
TITLE "This Feeling"
INDEX 01 00:00:00
FILE "03. L.A. Skip.flac" WAVE
TRACK 03 AUDIO
TITLE "L.A. Skip"
INDEX 01 00:00:00
FILE "04. Can't Seem To Do Much About It.flac" WAVE
TRACK 04 AUDIO
TITLE "Can't Seem To Do Much About It"
INDEX 01 00:00:00
FILE "05. Crazy Situation Blues.flac" WAVE
TRACK 05 AUDIO
TITLE "Crazy Situation Blues"
INDEX 01 00:00:00
FILE "06. Blues In My Reflection.flac" WAVE
TRACK 06 AUDIO
TITLE "Blues In My Reflection"
INDEX 01 00:00:00
FILE "07. Why Do I Still Have The Blues.flac" WAVE
TRACK 07 AUDIO
TITLE "Why Do I Still Have The Blues?"
INDEX 01 00:00:00
FILE "08. You Can't Take It With You.flac" WAVE
TRACK 08 AUDIO
TITLE "You Can't Take It With You"
INDEX 01 00:00:00
FILE "09. Migration.flac" WAVE
TRACK 09 AUDIO
TITLE "Migration"
INDEX 01 00:00:00
FILE "10. The Lying Game.flac" WAVE
TRACK 10 AUDIO
TITLE "The Lying Game"
INDEX 01 00:00:00
FILE "11. Hard Blues.flac" WAVE
TRACK 11 AUDIO
TITLE "Hard Blues"
INDEX 01 00:00:00
FILE "12. I Can't Imagine.flac" WAVE
TRACK 12 AUDIO
TITLE "I Can't Imagine"
INDEX 01 00:00:00

В имени седьмого файла убран символ _ перед расширением.
28 апреля 2019 04:32 #9

Мичман

Публикаций: 1 834

Награды:

Сейчас нет на сайте burn ответить
  • 0
Cпасибо.
28 апреля 2019 05:46 #10

Матрос

Публикаций: 0

Сейчас нет на сайте akme ответить
  • 0
burn,
Вам спасибо.
Отличный альбом.
28 апреля 2019 14:47 #11

Офицер

Публикаций: 0

Сейчас нет на сайте Arhiteh ответить
  • 0
Спасибо, burn! Хороший альбом, порадовали...
29 апреля 2019 17:20 #12

Матрос

Публикаций: 0

Сейчас нет на сайте WHITE_BEAR ответить
  • 0
Спасибо за альбом hi
19 мая 2019 14:57 #13

Матрос

Публикаций: 0

Сейчас нет на сайте aqsdf ответить
  • 0
супер альбом!
Вчера, 00:47 #14


Информация

Посетители, находящиеся в группе Гости, не могут оставлять комментарии к данной публикации.